Jobs 2013 Cropped HDRip XviD AC3 UNiQUE

  • Category Movies
  • Type Divx/Xvid
  • Language English
  • Total size 2.3 GB
  • Uploaded By Silmarillion
  • Downloads 104
  • Last checked 8 months ago
  • Date uploaded 5 years ago
  • Seeders 0
  • Leechers 0

Infohash : CE16A6BAACECAA62AB0B93F6B6EEDF58909B326F





http://www.imdb.com/title/tt2357129/




The story of Steve Jobs' ascension from college dropout into one of the most revered creative entrepreneurs of the 20th century.



Director:
Joshua Michael Stern

Writer:
Matt Whiteley

Stars:
Ashton Kutcher, Dermot Mulroney, Josh Gad

Genres:
Biography | Drama

Country:
USA

Language:
English




Source JYK THX

Note:

went ahead and did cropped version for people who hate subs.. have an uncropped version coming next.

General:

Format : AVI
Format/Info : Audio Video Interleave
File size : 2.26 GiB
Duration : 2h 7mn
Overall bit rate : 2 538 Kbps

Video:

ID : 0
Format : MPEG-4 Visual
Codec ID : XVID
Codec ID/Hint : XviD
Duration : 2h 7mn
Source duration : 54mn 1s
Bit rate : 1 036 Kbps
Width : 704 pixels
Height : 256 pixels
Display aspect ratio : 2.750
Frame rate : 29.970 fps
Color space : YUV
Chroma subsampling : 4:2:0
Compression mode : Lossy
Bits/(Pixel*Frame) : 0.192
Stream size : 945 MiB (41%)

Audio:

ID : 1
Format : AC-3
Format/Info : Audio Coding 3
Codec ID : 2000
Duration : 2h 7mn
Source duration : 54mn 1s
Bit rate mode : Constant
Bit rate : 192 Kbps
Channel(s) : 2 channels
Sampling rate : 48.0 KHz
Compression mode : Lossy
Stream size : 74.2 MiB (3%)
Alignment : Aligned on interleaves
Interleave, duration : 64 ms (1.92 video frames)







Files:

  • Jobs 2013 Cropped HDRip XviD AC3 UNiQUE.avi (2.3 GB)
  • Torrent Downloaded From ExtraTorrent.com.txt (0.3 KB)
  • jobs.nfo (2.3 KB)

There are currently no comments. Feel free to leave one :)

Code:

  • http://fr33dom.h33t.com:3310/announce
  • udp://fr33dom.h33t.com:3310/announce
  • udp://9.rarbg.com:2710/announce
  • udp://9.rarbg.me:2710/announce
  • udp://tracker.publicbt.com:80/announce
  • udp://10.rarbg.com/announce
  • udp://10.rarbg.me/announce
  • udp://coppersurfer.tk:6969/announce
  • udp://open.demonii.com:1337/announce
  • udp://tracker.istole.it:80/announce
  • udp://12.rarbg.me:80/announce
  • udp://tracker.openbittorrent.com:80/announce
  • udp://ipv4.tracker.harry.lu:80/announce
  • http://121.14.98.151:9090/announce
  • http://94.228.192.98/announce
Sitemapsaison 10, ├ępisode 15 - La femme au volant | Last Period: Owarinaki Rasen no Monogatari English Subbed | Purchasing a New Computer - 671 Words