Polar 2019 720p NF WEB-DL x264 [MW]

  • Category Movies
  • Type HD
  • Language English
  • Total size 1.0 GB
  • Uploaded By moviezworldz
  • Downloads 239
  • Last checked 23 minutes ago
  • Date uploaded 1 day ago
  • Seeders 26
  • Leechers 3

Polar

ActionCrime

When a retiring assassin realizes he's the target of a hit, he winds up back in the game going head to head with an army of younger, ruthless killers.

Infohash : 393D23F1279B852BC77BA01E12BE6BA889C28346





General
Format : Matroska
Format version : Version 4
File size : 1.02 GiB
Duration : 1 h 58 min
Overall bit rate : 1 232 kb/s

Video
ID : 1
Format : AVC
Format/Info : Advanced Video Codec
Format profile : [email protected]
Format settings : CABAC / 4 Ref Frames
Format settings, CABAC : Yes
Format settings, RefFrames : 4 frames
Codec ID : V_MPEG4/ISO/AVC
Duration : 1 h 58 min
Bit rate : 1 150 kb/s
Width : 1 280 pixels
Height : 640 pixels
Display aspect ratio : 2.000
Frame rate mode : Constant
Frame rate : 23.976 (24000/1001) FPS
Color space : YUV
Chroma subsampling : 4:2:0
Bit depth : 8 bits
Scan type : Progressive
Bits/(Pixel*Frame) : 0.059
Stream size : 937 MiB (89%)
Writing library : x264 core 157 r2935 545de2f

Audio
ID : 2
Format : AAC LC
Codec ID : A_AAC-2
Duration : 1 h 58 min
Bit rate : 128 kb/s
Channel(s) : 2 channels
Channel layout : L R
Sampling rate : 48.0 kHz
Frame rate : 46.875 FPS (1024 SPF)
Compression mode : Lossy
Stream size : 109 MiB (10%)
Language : English
Default : Yes
Forced : No


Click To View Image







Files:

Polar 2019 720p NF WEB-DL x264 [MW]
  • Polar 2019 720p NF WEB-DL x264 [MW].mkv (1.0 GB)

There are currently no comments. Feel free to leave one :)

Code:

  • udp://tracker.coppersurfer.tk:6969/announce
  • udp://tracker.pirateparty.gr:6969/announce
  • udp://tracker.tiny-vps.com:6969/announce
  • udp://9.rarbg.me:2740/announce
  • udp://9.rarbg.to:2790/announce
  • udp://public.popcorn-tracker.org:6969/announce
  • udp://tracker.vanitycore.co:6969/announce
  • udp://tracker.opentrackr.org:1337/announce
  • udp://open.stealth.si:80/announce
SitemapKanjana Vinaipanid | Тайны следствия | Read More