24 Hours to Live 2017 720p BluRay x264 AC3-RiPRG

  • Category Movies
  • Type HD
  • Language English
  • Total size 1.1 GB
  • Uploaded By lyrical2010
  • Downloads 591
  • Last checked 47 minutes ago
  • Date uploaded 11 months ago
  • Seeders 5
  • Leechers 1

24 Hours to Live

Thriller

An assassin seeks redemption after being given a second chance at life.

Infohash : 7E6568AD2B7FFC584600140BF473404CEAE47C00



24 Hours to Live 2017 720p BluRay x264 AC3-RiPRG

An assassin seeks redemption after being given a second chance at life.

http://www.imdb.com/title/tt5442456/

General

Format                                   : Matroska
Format version                           : Version 4 / Version 2
File size                                : 1.13 GiB
Duration                                 : 1h 33mn
Overall bit rate                         : 1 723 Kbps
Movie name                               : RiPRG

Video

Format                                   : AVC
Format/Info                              : Advanced Video Codec
Format profile                           : [email protected]
Format settings, CABAC                   : Yes
Format settings, ReFrames                : 4 frames
Codec ID                                 : V_MPEG4/ISO/AVC
Duration                                 : 1h 33mn
Bit rate                                 : 1 500 Kbps
Width                                    : 1 280 pixels
Height                                   : 536 pixels
Display aspect ratio                     : 2.40:1
Frame rate mode                          : Constant
Frame rate                               : 23.976 fps
Color space                              : YUV
Chroma subsampling                       : 4:2:0
Bit depth                                : 8 bits
Scan type                                : Progressive
Bits/(Pixel*Frame)                       : 0.091
Stream size                              : 980 MiB (85%)
Writing library                          : x264 core 148
Default                                  : Yes
Forced                                   : No
Color primaries                          : BT.709
Transfer characteristics                 : BT.709
Matrix coefficients                      : BT.709

Audio

Format                                   : AC-3
Format/Info                              : Audio Coding 3
Mode extension                           : CM (complete main)
Format settings, Endianness              : Big
Codec ID                                 : A_AC3
Duration                                 : 1h 33mn
Bit rate mode                            : Constant
Bit rate                                 : 224 Kbps
Channel(s)                               : 6 channels
Channel positions                        : Front: L C R, Side: L R, LFE
Sampling rate                            : 48.0 KHz
Bit depth                                : 16 bits
Compression mode                         : Lossy
Delay relative to video                  : -5ms
Stream size                              : 150 MiB (13%)
Title                                    : Surround
Language                                 : English
Default                                  : Yes
Forced                                   : No




Files:

24 Hours to Live 2017 720p BluRay x264 AC3-RiPRG
  • 24 Hours to Live 2017 720p BluRay x264 AC3-RiPRG.mkv (1.1 GB)

There are currently no comments. Feel free to leave one :)

Code:

  • udp://tracker.coppersurfer.tk:6969/announce
  • udp://tracker.leechers-paradise.org:6969/announce
  • udp://tracker.opentrackr.org:1337/announce
  • udp://public.popcorn-tracker.org:6969/announce
  • udp://p4p.arenabg.ch:1337/announce
  • udp://tracker.pirateparty.gr:6969/announce
  • udp://tracker.vanitycore.co:6969/announce
  • udp://tracker.torrent.eu.org:451/announce
  • udp://tracker.tiny-vps.com:6969/announce
  • udp://tracker.mg64.net:6969/announce
  • udp://tracker.zer0day.to:1337/announce
  • udp://eddie4.nl:6969/announce
Sitemap999 Nụ Hôn Bá Đạo Của Nam Thần – Chap 148 | Treeless Mountain | Watch movie